<?xml version="1.0" standalone="no"?>
<!DOCTYPE svg PUBLIC "-//W3C//DTD SVG 1.1//EN" "http://www.w3.org/Graphics/SVG/1.1/DTD/svg11.dtd" >
<svg xmlns="http://www.w3.org/2000/svg">
<metadata>Generated by IcoMoon</metadata>
<defs>
<font id="etbuilder_v2_5" horiz-adv-x="1024">
<font-face units-per-em="1024" ascent="960" descent="-64" />
<missing-glyph horiz-adv-x="1024" />
<glyph unicode="&#x20;" horiz-adv-x="512" d="" />
<glyph unicode="&#x21;" glyph-name="menu" d="M224 448h576c17.664 0 32 14.336 32 32s-14.336 32-32 32h-576c-17.664 0-32-14.336-32-32s14.336-32 32-32zM224 640h576c17.664 0 32 14.336 32 32s-14.336 32-32 32h-576c-17.664 0-32-14.336-32-32s14.336-32 32-32zM224 256h576c17.664 0 32 14.336 32 32s-14.336 32-32 32h-576c-17.664 0-32-14.336-32-32s14.336-32 32-32z" />
<glyph unicode="&#x22;" glyph-name="close" d="M321.6 189.333c12.48-12.48 32.768-12.48 45.248 0l177.152 177.152 177.152-177.152c12.48-12.48 32.768-12.48 45.248 0s12.48 32.768 0 45.248l-177.152 177.152 177.152 177.152c12.48 12.48 12.48 32.768 0 45.248s-32.768 12.48-45.248 0l-177.152-177.152-177.152 177.152c-12.48 12.48-32.768 12.48-45.248 0s-12.48-32.768 0-45.248l177.152-177.152-177.152-177.152c-12.48-12.48-12.48-32.768 0-45.248z" />
<glyph unicode="&#x23;" glyph-name="plus-box" d="M256 635.733v-448c0-35.328 28.672-64 64-64h448c35.328 0 64 28.672 64 64v448c0 35.328-28.672 64-64 64h-448c-35.328 0-64-28.672-64-64zM768 187.733h-448v448h448v-448zM416 379.733h96v-96c0-17.664 14.336-32 32-32s32 14.336 32 32v96h96c17.664 0 32 14.336 32 32s-14.336 32-32 32h-96v96c0 17.664-14.336 32-32 32s-32-14.336-32-32v-96h-96c-17.664 0-32-14.336-32-32s14.336-32 32-32z" />
<glyph unicode="&#x24;" glyph-name="folder-add" d="M960 859.733h-256c-35.328 0-64-28.672-64-64 0 0-8.32-58.688-64-64h-448c-35.328 0-64-28.672-64-64v-576c0-35.328 28.672-64 64-64h832c35.328 0 64 28.672 64 64v704c0 35.328-28.672 64-64 64zM736 347.733h-160v-160c0-17.664-14.336-32-32-32s-32 14.336-32 32v160h-160c-17.664 0-32 14.336-32 32s14.336 32 32 32h160v160c0 17.664 14.336 32 32 32s32-14.336 32-32v-160h160c17.664 0 32-14.336 32-32s-14.336-32-32-32z" />
<glyph unicode="&#x25;" glyph-name="close_alt" d="M544 891.733c-265.088 0-480-214.912-480-480s214.912-480 480-480 480 214.912 480 480-214.912 480-480 480zM766.4 588.885l-178.368-178.368 157.824-175.936c12.48-12.48 12.48-32.768 0-45.248s-32.768-12.48-45.248 0l-157.824 175.936-175.936-175.936c-12.48-12.48-32.768-12.48-45.248 0s-12.48 32.768 0 45.248l178.368 178.368-157.824 175.936c-12.48 12.48-12.48 32.768 0 45.248s32.768 12.48 45.248 0l157.824-175.936 175.936 175.936c12.48 12.48 32.768 12.48 45.248 0s12.48-32.768 0-45.248z" />
<glyph unicode="&#x26;" glyph-name="image" d="M551.296 581.717c0-49.167 39.857-89.024 89.024-89.024s89.024 39.857 89.024 89.024c0 49.167-39.857 89.024-89.024 89.024s-89.024-39.857-89.024-89.024zM832 59.733h64v384l-256-192-320 256-192-192v-256h64zM960 827.733h-896c-35.328 0-64-28.672-64-64v-768c0-35.328 28.672-64 64-64h896c35.328 0 64 28.672 64 64v768c0 35.328-28.672 64-64 64zM960-4.267h-896v768h896v-768z" />
<glyph unicode="&#x27;" glyph-name="images" d="M960 763.733h-64v128c0 35.328-28.672 64-64 64h-768c-35.328 0-64-28.672-64-64v-704c0-35.328 28.672-64 64-64h64v-128c0-35.328 28.672-64 64-64h768c35.328 0 64 28.672 64 64v704c0 35.328-28.672 64-64 64zM64 187.733v704h768v-704h-768zM960-4.267h-768v128h64v-64h640v640h64v-704zM473.28 693.717c0-49.167 39.857-89.024 89.024-89.024s89.024 39.857 89.024 89.024c0 49.167-39.857 89.024-89.024 89.024s-89.024-39.857-89.024-89.024zM320 635.733l-192-128v-256h640v320l-256-128z" />
<glyph unicode="&#x28;" glyph-name="document_alt" d="M128-64h768c35.328 0 64 28.672 64 64v896c0 35.328-28.672 64-64 64h-768c-35.328 0-64-28.672-64-64v-896c0-35.328 28.672-64 64-64zM128 896h768v-896h-768v896zM736 768h-256c-17.664 0-32-14.336-32-32s14.336-32 32-32h256c17.664 0 32 14.336 32 32s-14.336 32-32 32zM736 576h-448c-17.664 0-32-14.336-32-32s14.336-32 32-32h448c17.664 0 32 14.336 32 32s-14.336 32-32 32zM736 384h-448c-17.664 0-32-14.336-32-32s14.336-32 32-32h448c17.664 0 32 14.336 32 32s-14.336 32-32 32zM736 192h-448c-17.664 0-32-14.336-32-32s14.336-32 32-32h448c17.664 0 32 14.336 32 32s-14.336 32-32 32z" />
<glyph unicode="&#x29;" glyph-name="comment_alt" d="M60.736 15.509c5.248-11.264 16.576-18.432 28.992-18.432 91.84 0 169.536 22.336 257.792 74.368 42.816-6.784 127.36-15.168 164.48-15.168 280.192 0 508.096 187.072 508.096 417.088s-227.904 417.024-508.096 417.024-508.096-187.008-508.096-417.024c0-108.416 52.288-213.184 144.32-290.816-20.864-47.36-48.704-92.032-83.008-132.928-7.936-9.6-9.728-22.912-4.48-34.112zM67.904 473.365c0 194.688 199.232 353.088 444.096 353.088s444.096-158.4 444.096-353.088-199.232-353.088-444.096-353.088c-36.736 0-132.352 9.856-164.672 16.128-7.808 1.408-15.936-0.064-22.72-4.096-59.648-36.48-111.68-57.344-167.36-66.176 24 36.352 43.968 74.752 59.52 114.752 5.184 13.376 0.96 28.48-10.496 37.12-89.28 67.584-138.368 158.336-138.368 255.36z" />
<glyph unicode="&#x2a;" glyph-name="quotations_alt2" d="M512 955.733c-282.752 0-512-229.248-512-512s229.248-512 512-512 512 229.248 512 512-229.248 512-512 512zM512-4.267c-247.040 0-448 200.96-448 448s200.96 448 448 448 448-200.96 448-448-200.96-448-448-448zM410.048 610.901c-5.568 4.736-10.56 8.064-14.912 10.56-0.192 0.128-0.32 0.32-0.512 0.384-0.32 0.192-0.64 0.256-0.96 0.384-6.336 3.52-10.88 5.184-10.88 5.184l0.32-0.768c-10.304 4.224-21.12 7.232-32.896 7.232-52.096 0-94.272-43.84-94.272-97.92s42.24-97.92 94.272-97.92c16.704 0 32.128 4.864 45.76 12.8-4.672-52.352-31.040-128.704-127.68-206.528-13.504-10.944-16-31.168-5.504-45.184 6.144-8.192 15.296-12.48 24.512-12.48 6.656 0 13.312 2.176 19.008 6.784 118.592 95.68 148.224 193.984 152.192 259.648 6.784 83.968-18.688 128.128-41.984 151.168-2.112 2.24-4.096 4.672-6.464 6.656zM720.32 610.901c-5.568 4.736-10.56 8.064-14.912 10.56-0.192 0.128-0.32 0.256-0.512 0.384-0.32 0.192-0.64 0.256-0.96 0.384-6.336 3.456-10.88 5.184-10.88 5.184l0.32-0.768c-10.304 4.224-21.184 7.232-32.896 7.232-52.096 0-94.272-43.84-94.272-97.92s42.176-97.92 94.272-97.92c16.704 0 32.128 4.864 45.76 12.8-4.672-52.352-31.040-128.704-127.68-206.528-13.568-10.944-16-31.168-5.504-45.184 6.144-8.192 15.296-12.48 24.512-12.48 6.656 0 13.312 2.176 19.008 6.784 118.592 95.68 148.224 193.984 152.192 259.648 6.784 83.968-18.752 128.128-41.984 151.168-2.112 2.24-4.096 4.672-6.464 6.656z" />
<glyph unicode="&#x2b;" glyph-name="ribbon_alt" d="M167.488-63.403c7.936-3.264 16.256-4.864 24.512-4.864 16.64 0 33.024 6.528 45.248 18.752l274.752 274.752 274.752-274.752c12.224-12.224 28.608-18.752 45.248-18.752 8.256 0 16.576 1.6 24.448 4.864 23.936 9.92 39.552 33.28 39.552 59.136v896c0 35.328-28.672 64-64 64h-640c-35.328 0-64-28.672-64-64v-896c0-25.856 15.616-49.216 39.488-59.136zM512 315.733l-320-320v704h640v-704l-320 320zM832 891.733v-128h-640v128h640z" />
<glyph unicode="&#x2c;" glyph-name="tag_alt" d="M929.856 891.413c-0.576 0-1.152 0-1.728 0-0.512 0-0.96 0.064-1.472 0h-402.368c-9.792-0.448-32.064-15.744-34.944-18.624l-470.656-470.656c-24.96-24.96-24.96-65.408 0-90.368l361.344-361.344c12.544-12.48 28.864-18.688 45.184-18.688s32.704 6.208 45.184 18.688l470.656 470.656c2.88 2.88 18.944 22.656 18.944 34.944v403.648c0.896 17.856-12.608 31.744-30.144 31.744zM896 467.989c-0.96-1.472-1.92-3.008-2.816-4.224l-467.904-468.032-361.344 361.152 468.032 468.032c1.28 0.896 2.752 1.856 4.288 2.816h359.744v-359.744zM768 731.733c0-17.673 14.327-32 32-32s32 14.327 32 32c0 17.673-14.327 32-32 32s-32-14.327-32-32z" />
<glyph unicode="&#x2d;" glyph-name="social_rss" d="M0.384 955.733v-196.352c455.808 0 826.752-371.328 826.752-827.648h196.864c0 564.48-459.264 1024-1023.616 1024zM478.848-68.267h197.12c0.064 372.864-303.232 676.16-675.84 676.16v-196.288c127.808 0 247.936-49.984 338.432-140.544 90.368-90.304 140.288-211.008 140.288-339.328zM136.32-66.987c75.456 0 136.512 60.672 136.512 135.808-0.064 74.688-61.056 136.064-136.512 136.064-75.2 0-136.32-61.312-136.32-136.064 0-75.136 61.12-135.808 136.32-135.808z" />
<glyph unicode="&#x2e;" glyph-name="adjust-horiz" d="M864 763.733h-96c0 35.328-28.672 64-64 64h-64c-35.328 0-64-28.672-64-64h-416c-17.664 0-32-14.336-32-32s14.336-32 32-32h416c0-35.328 28.672-64 64-64h64c35.328 0 64 28.672 64 64h96c17.664 0 32 14.336 32 32s-14.336 32-32 32zM704 699.733h-64v64h64v-64zM864 507.733h-416c0 35.328-28.672 64-64 64h-64c-35.328 0-64-28.672-64-64h-96c-17.664 0-32-14.336-32-32s14.336-32 32-32h96c0-35.328 28.672-64 64-64h64c35.328 0 64 28.672 64 64h416c17.664 0 32 14.336 32 32s-14.336 32-32 32zM384 443.733h-64v64h64v-64zM864 251.733h-224c0 35.328-28.672 64-64 64h-64c-35.328 0-64-28.672-64-64h-288c-17.664 0-32-14.336-32-32s14.336-32 32-32h288c0-35.328 28.672-64 64-64h64c35.328 0 64 28.672 64 64h224c17.664 0 32 14.336 32 32s-14.336 32-32 32zM576 187.733h-64v64h64v-64z" />
<glyph unicode="&#x2f;" glyph-name="menu-square_alt2" d="M960 891.733h-832c-35.328 0-64-28.672-64-64v-832c0-35.328 28.672-64 64-64h832c35.328 0 64 28.672 64 64v832c0 35.328-28.672 64-64 64zM960-4.267h-832v832h832v-832zM288 379.733h512c17.664 0 32 14.336 32 32s-14.336 32-32 32h-512c-17.664 0-32-14.336-32-32s14.336-32 32-32zM288 571.733h512c17.664 0 32 14.336 32 32s-14.336 32-32 32h-512c-17.664 0-32-14.336-32-32s14.336-32 32-32zM288 187.733h512c17.664 0 32 14.336 32 32s-14.336 32-32 32h-512c-17.664 0-32-14.336-32-32s14.336-32 32-32z" />
<glyph unicode="&#x30;" glyph-name="cursor_alt" d="M314.496 944.341c-8.704 10.304-22.848 14.080-35.456 9.472s-21.056-16.64-21.056-30.080v-835.008c0-13.824 8.832-26.048 21.952-30.4 3.264-1.088 6.656-1.6 10.048-1.6 9.92 0 19.52 4.608 25.664 12.928l143.104 192.768 99.264-283.968c12.736-36.352 52.544-55.552 88.896-42.816s55.552 52.544 42.816 88.896l-97.408 278.592 223.872-43.328c13.376-2.688 26.816 3.52 33.664 15.168 6.848 11.712 5.632 26.432-3.136 36.8l-532.224 632.576zM494.4 387.349c-12.096 2.432-24.448-2.432-31.744-12.352l-140.608-189.44v650.432l417.536-496.128-245.184 47.488z" />
<glyph unicode="&#x31;" glyph-name="mail_alt" d="M960 827.733h-896c-35.328 0-64-28.672-64-64v-640c0-35.328 28.672-64 64-64h896c35.328 0 64 28.672 64 64v640c0 35.328-28.672 64-64 64zM363.52 378.005l148.608-100.992 147.712 101.696 254.912-254.976h-805.504l254.272 254.272zM64 168.981v412.672l245.632-166.976-245.632-245.696zM713.408 415.573l246.592 169.728v-416.32l-246.592 246.592zM960 763.733v-103.552l-1.344 1.92-446.784-307.648-447.872 304.512v104.768h896z" />
<glyph unicode="&#x32;" glyph-name="ul" d="M352 443.733h512c17.664 0 32 14.336 32 32s-14.336 32-32 32h-512c-17.664 0-32-14.336-32-32s14.336-32 32-32zM352 699.733h512c17.664 0 32 14.336 32 32s-14.336 32-32 32h-512c-17.664 0-32-14.336-32-32s14.336-32 32-32zM352 187.733h512c17.664 0 32 14.336 32 32s-14.336 32-32 32h-512c-17.664 0-32-14.336-32-32s14.336-32 32-32zM128 731.733c0-17.673 14.327-32 32-32s32 14.327 32 32c0 17.673-14.327 32-32 32s-32-14.327-32-32zM128 475.733c0-17.673 14.327-32 32-32s32 14.327 32 32c0 17.673-14.327 32-32 32s-32-14.327-32-32zM128 219.733c0-17.673 14.327-32 32-32s32 14.327 32 32c0 17.673-14.327 32-32 32s-32-14.327-32-32z" />
<glyph unicode="&#x34;" glyph-name="chat_alt" d="M893.12 578.453c5.632-25.344 8.896-51.392 8.896-78.144 0-206.592-175.36-378.816-406.272-415.808 48.832-19.712 103.552-31.232 161.856-31.232 54.976 0 106.88 10.112 153.728 27.712 59.328-20.224 124.096-25.472 177.664-25.472-27.84 33.408-47.168 66.176-60.992 94.976 59.392 52.992 96 123.2 96 200.512 0 91.392-51.008 172.864-130.88 227.456zM47.104 142.357c5.568-10.56 16.512-17.152 28.352-17.152 0.512 0 1.088 0 1.536 0.064 33.856 1.6 101.184 24.064 172.48 69.312 38.144-6.72 123.584-19.392 153.408-19.392 225.088 0 401.344 156.736 401.344 356.864 0 196.8-179.968 356.864-401.344 356.864s-401.216-160-401.216-356.8c0-91.584 40.32-180.096 111.296-246.336-15.936-38.784-37.056-75.456-62.848-109.056-7.616-9.856-8.768-23.296-3.008-34.368zM65.664 532.117c0 161.472 151.296 292.864 337.344 292.864s337.344-131.392 337.344-292.864c0-166.912-145.024-292.864-337.344-292.864-25.28 0-125.888 14.656-153.536 20.48-8.448 1.664-17.216 0.128-24.256-4.672-27.456-18.176-53.312-31.936-75.84-42.048 12.224 22.976 22.784 46.784 31.616 71.36 4.544 12.736 0.64 26.944-9.728 35.52-68.096 56-105.6 131.392-105.6 212.224z" />
<glyph unicode="&#x35;" glyph-name="grid-3x3" d="M128 635.733h128c35.328 0 64 28.672 64 64v128c0 35.328-28.672 64-64 64h-128c-35.328 0-64-28.672-64-64v-128c0-35.328 28.672-64 64-64zM448 635.733h128c35.328 0 64 28.672 64 64v128c0 35.328-28.672 64-64 64h-128c-35.328 0-64-28.672-64-64v-128c0-35.328 28.672-64 64-64zM768 635.733h128c35.328 0 64 28.672 64 64v128c0 35.328-28.672 64-64 64h-128c-35.328 0-64-28.672-64-64v-128c0-35.328 28.672-64 64-64zM64 379.733c0-35.328 28.672-64 64-64h128c35.328 0 64 28.672 64 64v128c0 35.328-28.672 64-64 64h-128c-35.328 0-64-28.672-64-64v-128zM384 379.733c0-35.328 28.672-64 64-64h128c35.328 0 64 28.672 64 64v128c0 35.328-28.672 64-64 64h-128c-35.328 0-64-28.672-64-64v-128zM704 379.733c0-35.328 28.672-64 64-64h128c35.328 0 64 28.672 64 64v128c0 35.328-28.672 64-64 64h-128c-35.328 0-64-28.672-64-64v-128zM64 59.733c0-35.328 28.672-64 64-64h128c35.328 0 64 28.672 64 64v128c0 35.328-28.672 64-64 64h-128c-35.328 0-64-28.672-64-64v-128zM384 59.733c0-35.328 28.672-64 64-64h128c35.328 0 64 28.672 64 64v128c0 35.328-28.672 64-64 64h-128c-35.328 0-64-28.672-64-64v-128zM704 59.733c0-35.328 28.672-64 64-64h128c35.328 0 64 28.672 64 64v128c0 35.328-28.672 64-64 64h-128c-35.328 0-64-28.672-64-64v-128z" />
<glyph unicode="&#x36;" glyph-name="grid-2x2" d="M192 507.733h192c35.328 0 64 28.672 64 64v192c0 35.328-28.672 64-64 64h-192c-35.328 0-64-28.672-64-64v-192c0-35.328 28.672-64 64-64zM640 507.733h192c35.328 0 64 28.672 64 64v192c0 35.328-28.672 64-64 64h-192c-35.328 0-64-28.672-64-64v-192c0-35.328 28.672-64 64-64zM128 123.733c0-35.328 28.672-64 64-64h192c35.328 0 64 28.672 64 64v192c0 35.328-28.672 64-64 64h-192c-35.328 0-64-28.672-64-64v-192zM576 123.733c0-35.328 28.672-64 64-64h192c35.328 0 64 28.672 64 64v192c0 35.328-28.672 64-64 64h-192c-35.328 0-64-28.672-64-64v-192z" />
<glyph unicode="&#x37;" glyph-name="cart_alt" d="M192 59.733c0-35.346 28.654-64 64-64s64 28.654 64 64c0 35.346-28.654 64-64 64s-64-28.654-64-64zM768 59.733c0-35.346 28.654-64 64-64s64 28.654 64 64c0 35.346-28.654 64-64 64s-64-28.654-64-64zM-1.856 859.733c0-17.664 14.336-32 32-32h66.496l39.744-169.984 55.616-278.016c0-2.304 1.088-4.288 1.344-6.528l-32.576-146.56c-2.112-9.472 0.192-19.392 6.272-26.944 6.080-7.616 15.232-11.968 24.96-11.968h726.016c17.664 0 32 14.336 32 32s-14.336 32-32 32h-686.080l14.656 65.92c3.2-0.512 6.080-1.92 9.408-1.92h583.36c35.328 0 56.64 6.976 73.664 48l103.936 318.848c18.048 57.152-21.568 81.152-56.96 81.152h-768c-4.992 0-9.344-1.728-14.016-2.816l-24.832 106.112c-3.392 14.464-16.256 24.704-31.168 24.704h-91.84c-17.728 0-32-14.336-32-32zM193.28 699.733h761.92l-102.144-313.536c-1.216-2.752-2.24-4.736-3.008-6.080-2.112-0.192-5.44-0.384-10.688-0.384h-583.36v6.336l-1.216 6.208-61.504 307.456z" />
<glyph unicode="&#x38;" glyph-name="pencil_alt" d="M960 955.733h-896c-35.328 0-64-28.672-64-64v-896c0-35.328 28.672-64 64-64h896c35.328 0 64 28.672 64 64v896c0 35.328-28.672 64-64 64zM178.368 662.229c-31.808 31.808-31.808 83.328 0 115.136s83.328 31.808 115.136 0l84.736-84.736-115.136-115.136-84.736 84.736zM659.84 180.757l-328.96 328.96 115.136 115.136 328.96-328.96 57.024-172.16-172.16 57.024z" />
<glyph unicode="&#x39;" glyph-name="drawer" d="M896 827.733c-17.984 40-50.624 64-86.016 64h-601.984c-35.328 0-64-24-80-64l-128-512v-289.024c0-17.664 14.336-32 32-32h960c17.664 0 32 14.336 32 32v285.056l-0.832 2.944-127.168 513.024zM188.48 806.421c2.944 6.592 10.432 21.312 19.52 21.312h601.984c8.768 0 18.88-9.024 25.984-22.784l112.704-458.048c0-0.128-0.192 0-0.192-0.128 0-17.664-14.336-32-32-32-0.064 0-0.064-0.064-0.128-0.064h-244.352c-17.664 0-32-14.336-32-32v-62.976c0-17.664-14.336-32-32-32-0.64 0-1.28-0.832-1.92-1.024h-188.992c-0.448 0.192-0.448 1.024-1.088 1.024-17.664 0-32 14.336-32 32v62.976c0 17.664-14.336 32-32 32h-244.352c-0.064 0-0.064 0.064-0.128 0.064-17.664 0-32.512 14.336-32.512 32 0 0.448-0.512 0.128-0.64 0.448l114.112 459.2z" />
<glyph unicode="&#x3a;" glyph-name="documents" d="M128 59.733h64v-64c0-35.328 28.672-64 64-64h640c35.328 0 64 28.672 64 64v768c0 35.328-28.672 64-64 64h-64v64c0 35.328-28.672 64-64 64h-640c-35.328 0-64-28.672-64-64v-768c0-35.328 28.672-64 64-64zM896 763.733v-768h-640v64h512c35.328 0 64 28.672 64 64v640h64zM672 827.733c17.664 0 32-14.336 32-32s-14.336-32-32-32h-258.688c-17.664 0-32 14.336-32 32s14.336 32 32 32h258.688zM221.312 635.733h450.688c17.664 0 32-14.336 32-32s-14.336-32-32-32h-450.688c-17.664 0-32 14.336-32 32s14.336 32 32 32zM221.312 443.733h450.688c17.664 0 32-14.336 32-32s-14.336-32-32-32h-450.688c-17.664 0-32 14.336-32 32s14.336 32 32 32zM221.312 251.733h450.688c17.664 0 32-14.336 32-32s-14.336-32-32-32h-450.688c-17.664 0-32 14.336-32 32s14.336 32 32 32z" />
<glyph unicode="&#x3b;" glyph-name="plus-box-small" d="M910.222 910.222h-796.444c-62.805 0-113.778-50.972-113.778-113.778v-796.444c0-62.805 50.972-113.778 113.778-113.778h796.444c62.805 0 113.778 50.972 113.778 113.778v796.444c0 62.805-50.972 113.778-113.778 113.778zM910.222 0h-796.444v796.444h796.444v-796.444zM284.444 341.333h170.667v-170.667c0-31.403 25.486-56.889 56.889-56.889s56.889 25.486 56.889 56.889v170.667h170.667c31.403 0 56.889 25.486 56.889 56.889s-25.486 56.889-56.889 56.889h-170.667v170.667c0 31.403-25.486 56.889-56.889 56.889s-56.889-25.486-56.889-56.889v-170.667h-170.667c-31.403 0-56.889-25.486-56.889-56.889s25.486-56.889 56.889-56.889z" />
<glyph unicode="&#x3c;" glyph-name="D" d="M504.448 640c27.648 0 51.968-4.544 72.256-13.44 20.032-8.832 36.992-21.248 50.496-36.864 14.208-16.448 25.216-36.48 32.768-59.52 8-24.256 12.032-51.648 12.032-81.344 0-29.312-3.968-56.512-11.712-80.896-7.424-23.168-18.24-43.328-32.192-59.968-13.376-15.936-30.464-28.672-50.688-37.952-20.416-9.28-44.928-14.016-72.96-14.016h-88.448v384h88.448zM504.448 704h-120.448c-17.664 0-32-14.336-32-32v-448c0-17.6 14.4-32 32-32h120.448c37.184 0 70.656 6.656 99.52 19.84 28.928 13.248 53.504 31.68 73.088 54.976 19.392 23.040 34.24 50.56 44.16 81.664 9.792 30.72 14.784 64.448 14.784 100.352 0 36.544-5.12 70.592-15.232 101.312-10.24 31.104-25.408 58.432-45.12 81.344-19.84 22.912-44.416 40.96-73.088 53.632-28.48 12.48-61.504 18.88-98.112 18.88v0zM512 896c247.040 0 448-200.96 448-448s-200.96-448-448-448-448 200.96-448 448 200.96 448 448 448zM512 960c-282.752 0-512-229.248-512-512s229.248-512 512-512 512 229.248 512 512-229.248 512-512 512v0z" />
<glyph unicode="&#x3d;" glyph-name="D2" d="M480 571.733h-32v-256h32c136 0 136 92.992 136 128 0 31.616 0 128-136 128zM512 763.733c-176.704 0-320-143.296-320-320s143.296-320 320-320 320 143.296 320 320c0 176.704-143.296 320-320 320zM480 251.733h-64c-17.664 0-32 15.296-32 34.112v315.776c0 18.816 14.336 34.112 32 34.112 0 0 48.512 0 64 0 79.424 0 200-32.64 200-192 0-161.344-120.576-192-200-192z" />
<glyph unicode="&#x3f;" glyph-name="eyedropper" d="M960 576c22.912 22.976 4.288 31.68-18.624 54.656l-38.592 38.72 99.84 100.16c31.040 31.104 27.904 84.736-7.040 119.68l-42.112 42.24c-34.88 35.008-88.32 38.144-119.296 7.040l-99.84-100.096-41.856 41.984c-22.912 22.976-60.032 22.976-82.944 0l-103.744-104.064 63.872-64-414.848-416.128c-18.752-18.816-34.752-49.92-42.432-82.176l-0.32 0.192c0 0-0.064-0.896-0.256-2.56-0.96-4.16-1.728-8.32-2.368-12.48-4.544-19.776-17.472-56.448-54.784-93.888v0l-25.856-25.984c-31.488-31.616-38.144-76.16-14.848-99.52l29.76-29.824c9.28-9.408 22.080-13.952 36.096-13.952 20.8 0 44.224 9.984 63.040 28.864l25.92 25.984c33.024 33.152 70.592 46.016 92.672 51.072 5.504 0.704 11.008 1.728 16.512 3.008 1.6 0.192 2.56 0.256 2.56 0.256l-0.192 0.32c32.192 7.744 63.168 23.808 81.92 42.624l414.848 416.128 54.912-56.256 128 128zM300.032 150.528c-4.8-4.864-20.032-14.336-40.192-19.136l-0.384-0.064-0.896-0.256c-2.816-0.64-5.632-1.216-8.448-1.536l-4.16-0.512-4.032-1.024c-8.064-1.856-16.896-4.224-26.368-7.424l-37.12-8.96 11.776 49.216c2.048 6.592 3.712 12.736 5.056 18.432l0.704 3.2 0.512 3.2c0.32 2.176 0.768 4.288 1.216 6.464l0.192 0.896 0.064 0.384c4.8 20.224 14.272 35.456 19.072 40.256l414.848 416.128 82.944-83.2-414.784-416.064z" />
<glyph unicode="&#x40;" glyph-name="floppy_alt" d="M768 955.733h-704c-35.328 0-64-28.672-64-64v-896c0-35.328 28.672-64 64-64h896c35.328 0 64 28.672 64 64v768l-192 192h-64zM704 635.733v256h64v-256c0-35.328-28.672-64-64-64h-384c-35.328 0-64 28.672-64 64v256h256v-256h192zM192 379.733c0 35.328 28.672 64 64 64h512c35.328 0 64-28.672 64-64v-384h-640v384z" />
<glyph unicode="&#x41;" glyph-name="box-empty" d="M832 827.733h-640c-35.328 0-64-28.672-64-64v-640c0-35.328 28.672-64 64-64h640c35.328 0 64 28.672 64 64v640c0 35.328-28.672 64-64 64zM832 123.733h-640v640h640v-640z" />
<glyph unicode="&#x42;" glyph-name="pencil-edit" d="M672.294 283.439l-56.585 170.836-326.43 326.43-114.251-114.251 326.43-326.43zM23.688 932.045c-31.563-31.563-31.563-82.687 0-114.251l84.084-84.084 114.251 114.251-84.084 84.084c-31.563 31.563-82.687 31.563-114.251 0zM952.617 765.21h-450.207l63.508-63.508h386.699v-698.586h-698.586v386.699l-63.508 63.508v-450.207c0-35.056 28.451-63.508 63.508-63.508h698.586c35.056 0 63.508 28.451 63.508 63.508v698.586c0 35.056-28.451 63.508-63.508 63.508z" />
<glyph unicode="&#x43;" glyph-name="duplicate" d="M704 416v256c0 19.2-12.8 32-32 32h-448c-19.2 0-32-12.8-32-32v-256c0-19.2 12.8-32 32-32h448c19.2 0 32 12.8 32 32zM640 448h-384v192h384v-192zM800 576c-19.2 0-32-12.8-32-32v-224h-416c-19.2 0-32-12.8-32-32s12.8-32 32-32h448c19.2 0 32 12.8 32 32v256c0 19.2-12.8 32-32 32z" />
<glyph unicode="&#x44;" glyph-name="images2" d="M960 763.733h-64v128c0 35.328-28.672 64-64 64h-768c-35.328 0-64-28.672-64-64v-704c0-35.328 28.672-64 64-64h64v-128c0-35.328 28.672-64 64-64h768c35.328 0 64 28.672 64 64v704c0 35.328-28.672 64-64 64zM64 187.733v704h768v-704h-768zM960-4.267h-768v128h64v-64h640v640h64v-704zM473.28 693.717c0-49.167 39.857-89.024 89.024-89.024s89.024 39.857 89.024 89.024c0 49.167-39.857 89.024-89.024 89.024s-89.024-39.857-89.024-89.024zM320 635.733l-192-128v-256h640v320l-256-128z" />
<glyph unicode="&#x45;" glyph-name="key" d="M992 955.733h-128c-7.744 0-15.232-2.816-21.12-7.936l-441.728-387.264c-22.848 4.8-58.176 11.2-81.152 11.2-176.448 0-320-143.552-320-320s143.552-320 320-320 320 143.552 320 320c0 52.416-9.984 87.552-21.312 116.736l108.928 36.992c13.248 4.48 22.016 17.088 21.696 31.040l-2.688 121.472 122.24 8.512c16.384 1.152 29.248 14.528 29.76 30.912l4.544 145.856 95.744 21.248c14.656 3.2 25.088 16.256 25.088 31.232v128c0 17.664-14.336 32-32 32zM224 251.733c38.4 0 71.552-22.592 86.912-55.168 5.824-12.416 9.088-26.24 9.088-40.832 0-52.992-43.008-96-96-96s-96 43.008-96 96 43.008 96 96 96z" />
<glyph unicode="&#x46;" glyph-name="pin" d="M488.704-50.923c5.376-5.952 10.56-9.792 15.552-12.48 0.064-0.064 0.192-0.064 0.256-0.128 3.456-1.792 6.848-3.136 10.048-3.136s6.592 1.344 10.048 3.136c0.064 0.064 0.192 0.064 0.256 0.128 4.992 2.688 10.176 6.528 15.552 12.48 0 0 297.472 323.52 327.36 603.84 1.792 14.464 3.008 29.12 3.008 44.032 0 198.144-160.64 358.784-358.784 358.784s-358.784-160.64-358.784-358.784c0-15.168 1.216-29.952 3.072-44.608 30.656-280.192 332.416-603.264 332.416-603.264zM512 827.733c127.232 0 230.784-103.552 230.784-230.784s-103.552-230.784-230.784-230.784-230.784 103.552-230.784 230.784c0 127.232 103.552 230.784 230.784 230.784z" />
<glyph unicode="&#x47;" glyph-name="profile" d="M704 763.733c0 102.784-89.216 192-192 192s-192-89.216-192-192c0-102.784 89.216-192 192-192s192 89.216 192 192zM512 507.733c-168.192 0-320-181.44-320-406.912s640-225.472 640 0-151.808 406.912-320 406.912z" />
<glyph unicode="&#x48;" glyph-name="piechart" d="M1010.88 586.197c-40.832 175.68-180.736 315.584-356.416 356.416-4.8 1.152-9.6 1.664-14.464 1.664-14.336 0-28.352-4.8-39.808-13.888-15.296-12.096-24.192-30.592-24.192-50.112v-372.544h372.544c19.52 0 37.952 8.896 50.112 24.192s16.64 35.264 12.224 54.272zM640 571.733v308.544c152.768-35.456 273.088-155.776 308.544-308.544h-308.544zM894.784 443.733h-382.784v382.784c0 17.856-7.424 34.88-20.48 46.976-11.904 11.008-27.456 17.024-43.52 17.024-1.6 0-3.264-0.064-4.864-0.192-248.512-19.008-443.136-229.248-443.136-478.592 0-264.64 215.36-480 480-480 249.344 0 459.584 194.624 478.656 443.136 1.344 17.728-4.8 35.264-16.896 48.384-12.096 13.056-29.12 20.48-46.976 20.48zM480-4.267c-229.376 0-416 186.624-416 416 0 218.624 169.472 398.4 384 414.784v-446.784h446.784c-16.384-214.528-196.16-384-414.784-384z" />
<glyph unicode="&#x49;" glyph-name="countdown" d="M512 955.733c-189.632 0-359.040-102.72-448.32-265.6v105.6c0 17.664-14.336 32-32 32s-32-14.336-32-32v-192c0-17.664 14.336-32 32-32 0.064 0 0.128 0 0.128 0s0.128 0 0.192 0h192c17.664 0 32 14.336 32 32s-14.336 32-32 32h-115.776c74.112 156.032 228.928 256 403.776 256 247.168 0 448.32-201.024 448.32-448s-201.152-448-448.32-448c-211.136 0-395.712 149.632-438.784 355.84-3.648 17.28-20.992 28.736-37.888 24.768-17.344-3.648-28.416-20.608-24.768-37.952 49.344-235.584 260.16-406.656 501.44-406.656 282.496 0 512.32 229.696 512.32 512s-229.824 512-512.32 512zM480 763.733c-17.664 0-32-14.336-32-32v-320.256c0-17.664 14.336-32 32-32 0.448 0 0.832 0.256 1.28 0.256h254.72c17.664 0 32 14.336 32 32s-14.336 32-32 32h-224v288c0 17.664-14.336 32-32 32z" />
<glyph unicode="&#x4a;" glyph-name="lock" d="M768 544h-64v32c0 106.048-85.952 192-192 192s-192-85.952-192-192v-32h-64c-17.664 0-32-14.336-32-32v-352c0-8.832 3.584-16.832 9.344-22.656 5.824-5.76 13.824-9.344 22.656-9.344h512c8.832 0 16.832 3.584 22.656 9.344 5.76 5.76 9.344 13.76 9.344 22.656v352c0 17.664-14.336 32-32 32zM384 576c0 70.72 57.28 128 128 128s128-57.28 128-128v-32h-256v32zM736 192h-448v288h448v-288zM512 256c17.664 0 32 14.336 32 32v96c0 17.664-14.336 32-32 32s-32-14.336-32-32v-96c0-17.664 14.336-32 32-32z" />
<glyph unicode="&#x4b;" glyph-name="history" d="M0 31.616v-31.616h31.68c-17.472 0-31.68 14.144-31.68 31.616zM31.68 960h-31.68v-31.616c0 17.408 14.208 31.616 31.68 31.616zM320 31.68v128.64c0 17.472-14.144 31.68-31.68 31.68h-256.64c-17.472 0-31.68-14.208-31.68-31.616v-128.768c0-17.472 14.208-31.616 31.68-31.616h256.64c17.536 0 31.68 14.208 31.68 31.68zM31.68 384h256.64c17.536 0 31.68 14.208 31.68 31.68v128.64c0 17.472-14.144 31.68-31.68 31.68h-256.64c-17.472 0-31.68-14.208-31.68-31.616v-128.768c0-17.472 14.208-31.616 31.68-31.616zM31.68 768h256.64c17.536 0 31.68 14.208 31.68 31.68v128.64c0 17.472-14.144 31.68-31.68 31.68h-256.64c-17.472 0-31.68-14.208-31.68-31.616v-128.768c0-17.472 14.208-31.616 31.68-31.616zM512 896v-320c0-35.328 28.672-64 64-64l107.008 107.008c40.96-48 73.856-102.464 73.856-171.968 0-160.704-60.48-243.904-214.144-253.376-17.024-1.024-30.72-14.464-30.72-31.488v-128.704c0-17.856 15.040-32.832 32.96-31.936 262.464 12.544 418.048 176.896 418.24 445.056v0.768c-0.064 131.52-53.248 244.672-135.552 316.288l132.352 132.352c0 35.328-28.672 64-64 64h-320c-35.328 0-64-28.672-64-64z" />
<glyph unicode="&#x4c;" glyph-name="redo" d="M896.064 960l-113.92-113.984c-80.32 61.952-181.504 96.128-292.864 97.792-246.080 3.648-460.48-167.936-485.76-412.864-29.696-287.808 195.264-531.008 476.928-531.008 124.16 0 236.928 47.104 322.048 124.48 18.368 16.704 19.648 45.184 2.048 62.656l-75.776 75.2c-15.808 15.744-41.216 16.64-57.728 1.664-50.624-46.080-117.056-75.648-190.592-75.648-170.944 0-307.072 144.512-285.44 320.576 17.472 142.016 147.136 245.184 290.176 243.136 58.112-0.832 111.488-17.408 156.16-46.912l-128.896-128.896c0-35.328 28.608-63.936 63.936-63.936h319.68c35.328-0.064 63.936 28.608 63.936 63.936v319.808c0 35.328-28.608 64-63.936 64z" />
<glyph unicode="&#x4d;" glyph-name="undo" d="M470.72 943.808c-111.36-1.664-212.544-35.776-292.864-97.792l-113.92 113.984c-35.328 0-63.936-28.672-63.936-64v-319.872c0-35.328 28.608-63.936 63.936-63.936h319.68c35.328 0 63.936 28.672 63.936 63.936l-128.896 129.024c44.672 29.504 98.048 46.080 156.16 46.912 143.040 2.048 272.704-101.12 290.176-243.136 21.632-176.064-114.496-320.576-285.44-320.576-73.536 0-139.904 29.568-190.592 75.648-16.512 15.040-41.92 14.080-57.728-1.664l-75.776-75.2c-17.6-17.472-16.32-45.952 2.048-62.656 85.056-77.44 197.888-124.48 322.048-124.48 281.664 0 506.56 243.2 476.928 531.008-25.28 244.864-239.68 416.448-485.76 412.8z" />
<glyph unicode="&#x4e;" glyph-name="check" d="M949.312 945.92c-17.536 22.848-50.368 27.264-73.344 9.856-119.936-90.688-449.984-456.064-527.296-543.872l-270.336 144.192c-18.176 9.664-41.216 8.32-58.368-5.248-22.912-18.176-26.688-51.456-8.32-74.176 0 0 294.144-365.248 297.984-368.512 104.384-90.88 185.088 5.12 208.832 53.184 92.608 187.328 217.536 396.032 428.224 718.528l0.768 0.832c15.68 18.176 17.088 45.376 1.856 65.216z" />
<glyph unicode="&#x50;" glyph-name="toggle" d="M896 571.733h-768c-35.328 0-64-28.672-64-64v-128c0-35.328 28.672-64 64-64h768c35.328 0 64 28.672 64 64v128c0 35.328-28.672 64-64 64zM896 379.733h-768v128h768v-128zM896 251.733h-768c-35.328 0-64-28.672-64-64v-128c0-35.328 28.672-64 64-64h768c35.328 0 64 28.672 64 64v128c0 35.328-28.672 64-64 64zM896 59.733h-768v128h768v-128zM896 891.733h-768c-35.328 0-64-28.672-64-64v-128c0-35.328 28.672-64 64-64h768c35.328 0 64 28.672 64 64v128c0 35.328-28.672 64-64 64zM896 699.733h-768v128h768v-128z" />
<glyph unicode="&#x51;" glyph-name="tabs" d="M960 891.733h-896c-35.328 0-64-28.672-64-64v-704c0-35.328 28.672-64 64-64h896c35.328 0 64 28.672 64 64v704c0 35.328-28.672 64-64 64zM960 827.733v-64h-256v64h256zM384 827.733h256v-64h-256v64zM960 123.733h-896v704h256v-128h640v-576zM160 539.733c0-17.664 14.336-32 32-32h640c17.664 0 32 14.336 32 32s-14.336 32-32 32h-640c-17.664 0-32-14.336-32-32zM832 443.733h-640c-17.664 0-32-14.336-32-32s14.336-32 32-32h640c17.664 0 32 14.336 32 32s-14.336 32-32 32zM832 315.733h-640c-17.664 0-32-14.336-32-32s14.336-32 32-32h640c17.664 0 32 14.336 32 32s-14.336 32-32 32z" />
<glyph unicode="&#x52;" glyph-name="subscribe" d="M96 315.733c158.784 0 288-129.216 288-288 0-17.664 14.336-32 32-32s32 14.336 32 32c0 194.112-157.888 352-352 352-17.664 0-32-14.336-32-32s14.336-32 32-32zM96 571.733c299.968 0 544-244.032 544-544 0-17.664 14.336-32 32-32s32 14.336 32 32c0 335.232-272.768 608-608 608-17.664 0-32-14.336-32-32s14.336-32 32-32zM96 827.733c441.152 0 800-358.848 800-800 0-17.664 14.336-32 32-32s32 14.336 32 32c0 476.416-387.584 864-864 864-17.664 0-32-14.336-32-32s14.336-32 32-32zM192 59.733c0-35.346-28.654-64-64-64s-64 28.654-64 64c0 35.346 28.654 64 64 64s64-28.654 64-64z" />
<glyph unicode="&#x53;" glyph-name="slider" d="M729.344 660.757c0-49.167-39.857-89.024-89.024-89.024s-89.024 39.857-89.024 89.024c0 49.167 39.857 89.024 89.024 89.024s89.024-39.857 89.024-89.024zM448 571.733l-192-128v-192h512v256l-128-64zM960 827.733h-64c0 35.328-28.672 64-64 64h-640c-35.328 0-64-28.672-64-64h-64c-35.328 0-64-28.672-64-64v-512c0-35.328 28.672-64 64-64h64c0-35.328 28.672-64 64-64h640c35.328 0 64 28.672 64 64h64c35.328 0 64 28.672 64 64v512c0 35.328-28.672 64-64 64zM64 251.733v512h64v-512h-64zM832 187.733h-640v640h640v-640zM960 251.733h-64v512h64v-512zM544 27.733c0-17.673-14.327-32-32-32s-32 14.327-32 32c0 17.673 14.327 32 32 32s32-14.327 32-32zM672 27.733c0-17.673-14.327-32-32-32s-32 14.327-32 32c0 17.673 14.327 32 32 32s32-14.327 32-32zM416 27.733c0-17.673-14.327-32-32-32s-32 14.327-32 32c0 17.673 14.327 32 32 32s32-14.327 32-32z" />
<glyph unicode="&#x54;" glyph-name="sidebar" d="M960 955.733h-896c-35.328 0-64-28.672-64-64v-896c0-35.328 28.672-64 64-64h896c35.328 0 64 28.672 64 64v896c0 35.328-28.672 64-64 64zM64-4.267v896h576v-896h-576zM960-4.267h-256v896h256v-896zM800 699.733h64c17.664 0 32 14.336 32 32s-14.336 32-32 32h-64c-17.664 0-32-14.336-32-32s14.336-32 32-32zM800 507.733h64c17.664 0 32 14.336 32 32s-14.336 32-32 32h-64c-17.664 0-32-14.336-32-32s14.336-32 32-32zM800 315.733h64c17.664 0 32 14.336 32 32s-14.336 32-32 32h-64c-17.664 0-32-14.336-32-32s14.336-32 32-32zM864 187.733h-64c-17.664 0-32-14.336-32-32s14.336-32 32-32h64c17.664 0 32 14.336 32 32s-14.336 32-32 32z" />
<glyph unicode="&#x56;" glyph-name="pricing-table" d="M960 891.733h-128c0 35.328-28.672 64-64 64h-512c-35.328 0-64-28.672-64-64h-128c-35.328 0-64-28.672-64-64v-768c0-35.328 28.672-64 64-64h128c0-35.328 28.672-64 64-64h512c35.328 0 64 28.672 64 64h128c35.328 0 64 28.672 64 64v768c0 35.328-28.672 64-64 64zM960 827.733v-128h-128v128h128zM256 891.733h512v-128h-512v128zM192 827.733v-128h-128v128h128zM64 59.733v576h128v-64h-32c-17.664 0-32-14.336-32-32s14.336-32 32-32h32v-64h-32c-17.664 0-32-14.336-32-32s14.336-32 32-32h32v-64h-32c-17.664 0-32-14.336-32-32s14.336-32 32-32h32v-64h-32c-17.664 0-32-14.336-32-32s14.336-32 32-32h32v-64h-128zM768-4.267h-512v704h512v-704zM832 59.733v64h32c17.664 0 32 14.336 32 32s-14.336 32-32 32h-32v64h32c17.664 0 32 14.336 32 32s-14.336 32-32 32h-32v64h32c17.664 0 32 14.336 32 32s-14.336 32-32 32h-32v64h32c17.664 0 32 14.336 32 32s-14.336 32-32 32h-32v64h128v-576h-128zM672 635.733h-320c-17.664 0-32-14.336-32-32s14.336-32 32-32h320c17.664 0 32 14.336 32 32s-14.336 32-32 32zM672 507.733h-320c-17.664 0-32-14.336-32-32s14.336-32 32-32h320c17.664 0 32 14.336 32 32s-14.336 32-32 32zM672 379.733h-320c-17.664 0-32-14.336-32-32s14.336-32 32-32h320c17.664 0 32 14.336 32 32s-14.336 32-32 32zM640 251.733h-256c-35.328 0-64-28.672-64-64v-64c0-35.328 28.672-64 64-64h256c35.328 0 64 28.672 64 64v64c0 35.328-28.672 64-64 64zM640 123.733h-256v64h256v-64z" />
<glyph unicode="&#x57;" glyph-name="portfolio" d="M960 827.733h-896c-35.328 0-64-30.592-64-65.856v-702.272c0-35.264 28.672-63.872 64-63.872h896c35.328 0 64 28.608 64 63.872v702.272c0 35.264-28.672 65.856-64 65.856zM384 571.733v192h256v-192h-256zM640 507.733v-197.312h-256v197.312h256zM64 763.733h256v-192h-256v192zM64 507.733h256v-197.312h-256v197.312zM960 59.733l-896-0.128v192.128h256v-192h64v192h256v-192h64v192h256v-192zM960 310.421h-256v197.312h256v-197.312zM960 761.877v-190.144h-256v192h256v-1.856z" />
<glyph unicode="&#x58;" glyph-name="number-counter" d="M736 571.733h-77.376l13.056 91.456c2.496 17.472-9.664 33.728-27.2 36.224-17.344 2.496-33.6-9.664-36.16-27.136l-14.4-100.544h-127.36l13.056 91.456c2.56 17.536-9.6 33.728-27.136 36.224-17.28 2.496-33.664-9.664-36.16-27.136l-14.4-100.544h-81.92c-17.664 0-32-14.336-32-32s14.336-32 32-32h72.832l-18.304-128h-86.528c-17.664 0-32-14.336-32-32s14.336-32 32-32h77.376l-13.056-91.456c-2.496-17.472 9.664-33.728 27.2-36.224 1.472-0.256 3.072-0.32 4.544-0.32 15.616 0 29.312 11.52 31.616 27.456l14.4 100.544h127.36l-13.056-91.456c-2.496-17.472 9.664-33.728 27.2-36.224 1.408-0.256 3.008-0.32 4.48-0.32 15.616 0 29.312 11.52 31.616 27.456l14.4 100.544h81.92c17.664 0 32 14.336 32 32s-14.336 32-32 32h-72.832l18.304 128h86.528c17.664 0 32 14.336 32 32s-14.336 32-32 32zM566.528 379.733h-127.36l18.304 128h127.36l-18.304-128zM512 955.733c-282.304 0-512-229.696-512-512s229.696-512 512-512 512 229.696 512 512-229.696 512-512 512zM512-4.267c-246.976 0-448 200.96-448 448s201.024 448 448 448 448-200.96 448-448-201.024-448-448-448z" />
<glyph unicode="&#x59;" glyph-name="map" d="M973.888 826.197l-288 128c-4.544 1.024-9.216 1.536-13.888 1.536-4.16 0-8.384-0.384-12.48-1.216l-308.096-125.376-273.472 125.056c-4.608 1.024-9.28 1.536-13.952 1.536-14.4 0-28.544-4.864-40-14.080-15.168-12.096-24-30.464-24-49.92v-768c0-29.952 20.8-55.936 50.048-62.464l286.656-128c4.608-1.024 9.28-1.536 13.952-1.536 4.16 0 8.384 0.384 12.48 1.216l308.096 125.376 274.816-125.056c4.672-1.024 9.344-1.536 13.952-1.536 14.4 0 28.608 4.864 40.064 14.080 15.104 12.16 23.936 30.528 23.936 49.92v768c0 30.016-20.864 56-50.112 62.464zM384 776.981l256 101.952v-768l-256-101.952v768zM64 891.733l256-114.304v-768l-256 114.304v768zM960-4.267l-256 113.792v768l256-113.792v-768z" />
<glyph unicode="&#x5a;" glyph-name="eye" d="M1015.424 485.632c-98.112 202.688-329.792 346.368-504.128 346.368-172.288 0-400.512-140.288-500.608-339.264-14.272-28.416-14.272-61.184 0-89.536 100.096-198.912 328.32-339.2 500.608-339.2 174.336 0 406.016 143.68 504.128 346.496 11.392 23.488 11.392 51.584 0 75.136zM512 256c-106.048 0-192 85.952-192 192s85.952 192 192 192c25.152 0 49.024-5.12 71.040-13.952-41.92-20.992-71.040-63.936-71.040-114.048 0-70.72 57.28-128 128-128 20.416 0 39.424 5.184 56.512 13.696-22.208-81.536-95.936-141.696-184.512-141.696z" />
<glyph unicode="&#x5b;" glyph-name="person" d="M960 827.733h-896c-35.328 0-64-28.672-64-64v-640c0-35.328 28.672-64 64-64h896c35.328 0 64 28.672 64 64v640c0 35.328-28.672 64-64 64zM64 763.733h896v-640h-896v640zM869.312 443.733h-389.312c-17.664 0-32-14.336-32-32s14.336-32 32-32h389.312c17.664 0 32 14.336 32 32s-14.336 32-32 32zM869.312 315.733h-389.312c-17.664 0-32-14.336-32-32s14.336-32 32-32h389.312c17.664 0 32 14.336 32 32s-14.336 32-32 32zM869.312 571.733h-389.312c-17.664 0-32-14.336-32-32s14.336-32 32-32h389.312c17.664 0 32 14.336 32 32s-14.336 32-32 32zM333.184 558.421c0-42.698-34.614-77.312-77.312-77.312s-77.312 34.614-77.312 77.312c0 42.698 34.614 77.312 77.312 77.312s77.312-34.614 77.312-77.312zM257.536 450.197c-69.888 0-126.464-75.904-126.464-169.6s252.928-93.632 252.928 0-56.64 169.6-126.464 169.6z" />
<glyph unicode="&#x5c;" glyph-name="phone" horiz-adv-x="614" d="M614.4 51.149v819.302c0 56.525-45.824 102.349-102.349 102.349h-409.702c-56.525 0-102.349-45.824-102.349-102.349v-819.302c0-56.525 45.824-102.349 102.349-102.349h409.702c56.525 0 102.349 45.824 102.349 102.349zM358.4 0h-102.4v102.4h102.4v-102.4zM512 153.6h-409.6v614.4h409.6v-614.4z" />
<glyph unicode="&#x5d;" glyph-name="tablet" horiz-adv-x="768" d="M768-42.666v938.667c0 23.552-19.115 42.667-42.667 42.667h-682.667c-23.552 0-42.667-19.115-42.667-42.667v-938.667c0-23.552 19.115-42.667 42.667-42.667h682.667c23.552 0 42.667 19.115 42.667 42.667zM426.667-42.666h-85.333v85.333h85.333v-85.333zM682.667 85.334h-597.333v682.667h597.333v-682.667z" />
<glyph unicode="&#x5e;" glyph-name="desktop" horiz-adv-x="1260" d="M512.591 118.154c-0.433-61.519-6.302-118.154-39.975-118.154h-78.769c-21.74 0-39.385-17.644-39.385-39.385s17.644-39.385 39.385-39.385h472.615c21.74 0 39.385 17.644 39.385 39.385s-17.644 39.385-39.385 39.385h-78.769c-33.556 0-39.463 56.95-39.975 118.154h433.822c43.481 0 78.769 35.289 78.769 78.769v669.538c0 43.52-35.289 78.769-78.769 78.769h-1102.769c-43.481 0-78.769-35.249-78.769-78.769v-669.538c0-43.481 35.289-78.769 78.769-78.769h433.822zM1181.538 275.693h-1102.769v590.769h1102.769v-590.769z" />
<glyph unicode="&#x60;" glyph-name="login" d="M515.008 891.733c111.68 0 211.2-64.192 259.776-167.552 7.552-16 26.624-22.848 42.56-15.36 16 7.552 22.848 26.624 15.36 42.56-59.264 126.080-180.928 204.352-317.696 204.352-187.136 0-323.008-150.080-323.008-356.544l-0.32-27.456h-63.68c-35.328 0-64-28.672-64-64v-512c0-35.328 28.672-64 64-64h768c35.328 0 64 28.672 64 64v512c0 35.328-28.672 64-64 64h-640.32l0.32 27.072c0 172.48 106.56 292.928 259.008 292.928zM896-4.267h-768v512h768v-512zM512 123.733c70.72 0 128 57.28 128 128s-57.28 128-128 128-128-57.28-128-128c0-70.72 57.28-128 128-128zM512 315.733c35.264 0 64-28.736 64-64s-28.736-64-64-64-64 28.736-64 64 28.736 64 64 64z" />
<glyph unicode="&#x61;" glyph-name="header" d="M960 955.733h-896c-35.328 0-64-28.672-64-64v-896c0-35.328 28.672-64 64-64h896c35.328 0 64 28.672 64 64v896c0 35.328-28.672 64-64 64zM960-4.267h-896v576h896v-576zM960 635.733h-896v256h896v-256zM160 763.733h704c17.664 0 32 14.336 32 32s-14.336 32-32 32h-704c-17.664 0-32-14.336-32-32s14.336-32 32-32z" />
<glyph unicode="&#x62;" glyph-name="follow" d="M960 763.733h-320v128c0 35.328-28.672 64-64 64h-128c-35.328 0-64-28.672-64-64v-128h-320c-35.328 0-64-28.672-64-64v-704c0-35.328 28.672-64 64-64h896c35.328 0 64 28.672 64 64v704c0 35.328-28.672 64-64 64zM64 699.733h256.576c-0.384-9.28-0.576-19.84-0.576-32 0-52.992 43.008-96 96-96h192c52.992 0 96 43.008 96 96 0 12.16-0.192 22.72-0.576 32h256.576v-704h-896v704zM576 635.733h-128v256h128v-256zM869.312 315.733h-389.312c-17.664 0-32-14.336-32-32s14.336-32 32-32h389.312c17.664 0 32 14.336 32 32s-14.336 32-32 32zM869.312 187.733h-389.312c-17.664 0-32-14.336-32-32s14.336-32 32-32h389.312c17.664 0 32 14.336 32 32s-14.336 32-32 32zM869.312 443.733h-389.312c-17.664 0-32-14.336-32-32s14.336-32 32-32h389.312c17.664 0 32 14.336 32 32s-14.336 32-32 32zM333.184 430.421c0-42.698-34.614-77.312-77.312-77.312s-77.312 34.614-77.312 77.312c0 42.698 34.614 77.312 77.312 77.312s77.312-34.614 77.312-77.312zM257.536 322.197c-69.888 0-126.464-75.904-126.464-169.6s252.928-93.632 252.928 0-56.64 169.6-126.464 169.6z" />
<glyph unicode="&#x63;" glyph-name="filtered-portfolio" d="M960 763.733h-896c-35.328 0-64-30.592-64-65.856v-702.272c0-35.264 28.672-63.872 64-63.872h896c35.328 0 64 28.608 64 63.872v702.272c0 35.264-28.672 65.856-64 65.856zM384 507.733v192h256v-192h-256zM640 443.733v-197.312h-256v197.312h256zM64 699.733h256v-192h-256v192zM64 443.733h256v-197.312h-256v197.312zM960-4.267l-896-0.128v192.128h256v-192h64v192h256v-192h64v192h256v-192zM960 246.421h-256v197.312h256v-197.312zM960 697.877v-190.144h-256v192h256v-1.856zM96 891.733c-17.664 0-32-14.336-32-32s14.336-32 32-32h192c17.664 0 32 14.336 32 32s-14.336 32-32 32h-192zM416 891.733c-17.664 0-32-14.336-32-32s14.336-32 32-32h192c17.664 0 32 14.336 32 32s-14.336 32-32 32h-192zM736 891.733c-17.664 0-32-14.336-32-32s14.336-32 32-32h192c17.664 0 32 14.336 32 32s-14.336 32-32 32h-192z" />
<glyph unicode="&#x64;" glyph-name="divider" d="M960 571.733h-384v274.752l73.344-73.344c12.48-12.48 32.768-12.48 45.248 0s12.48 32.768 0 45.248l-128 128c-2.944 2.944-6.464 5.248-10.368 6.848-7.808 3.264-16.64 3.264-24.448 0-3.84-1.536-7.232-3.84-10.176-6.72-0.064-0.064-0.128-0.064-0.256-0.128l-128-128c-12.48-12.48-12.48-32.768 0-45.248s32.768-12.48 45.248 0l73.408 73.344v-274.752h-384c-35.328 0-64-28.672-64-64v-64c0-35.328 28.672-64 64-64h384v-338.752l-73.344 73.344c-12.48 12.48-32.768 12.48-45.248 0s-12.48-32.768 0-45.248l128-128c0.064-0.064 0.192-0.064 0.256-0.192 2.88-2.816 6.336-5.184 10.112-6.72 7.808-3.264 16.64-3.264 24.448 0 3.904 1.6 7.424 3.968 10.368 6.912l128 128c12.48 12.48 12.48 32.768 0 45.248s-32.768 12.48-45.248 0l-73.344-73.344v338.752h384c35.328 0 64 28.672 64 64v64c0 35.328-28.672 64-64 64zM960 443.733h-832v64h832v-64z" />
<glyph unicode="&#x65;" glyph-name="cta" d="M960 955.733h-896c-35.328 0-64-28.672-64-64v-448c0-35.328 28.672-64 64-64h422.272v-336.576c0-13.824 8.896-26.048 21.952-30.4 3.328-1.088 6.656-1.6 10.048-1.6 9.92 0 19.584 4.672 25.664 12.928l104.448 140.736 84.672-211.584c4.992-12.544 17.024-20.096 29.696-20.096 3.968 0 8 0.704 11.904 2.304 16.448 6.592 24.384 25.216 17.792 41.6l-85.568 213.952 183.168-35.456c13.312-2.688 26.752 3.52 33.6 15.168s5.632 26.432-3.072 36.8l-145.088 172.224h184.512c35.328 0 64 28.672 64 64v448c0 35.328-28.672 64-64 64zM665.024 264.149c-12.032 2.432-24.512-2.496-31.744-12.352l-83.008-111.872v408.064l262.976-312.512-148.224 28.672zM960 443.733h-238.336l-178.944 212.608c-8.576 10.304-22.976 14.080-35.392 9.472-12.672-4.608-21.056-16.64-21.056-30.080v-192h-422.272v448h896v-448z" />
<glyph unicode="&#x66;" glyph-name="circle-counter" d="M512 955.733c-17.664 0-32-14.336-32-32s14.336-32 32-32c246.976 0 448-200.96 448-448s-201.024-448-448-448-448 200.96-448 448c0 69.312 15.36 135.68 45.632 197.248 7.808 15.872 1.344 35.008-14.592 42.816-15.872 7.68-34.944 1.216-42.816-14.592-34.688-70.4-52.224-146.304-52.224-225.472 0-282.304 229.696-512 512-512s512 229.696 512 512-229.696 512-512 512zM297.344 229.077c6.272-6.208 14.464-9.344 22.656-9.344s16.384 3.136 22.656 9.344l384 384c12.48 12.48 12.48 32.768 0 45.248s-32.768 12.48-45.248 0l-384-384c-12.544-12.48-12.544-32.704-0.064-45.248zM720 283.733c0-26.51-21.49-48-48-48s-48 21.49-48 48c0 26.51 21.49 48 48 48s48-21.49 48-48zM400 603.733c0-26.51-21.49-48-48-48s-48 21.49-48 48c0 26.51 21.49 48 48 48s48-21.49 48-48z" />
<glyph unicode="&#x67;" glyph-name="blurb" d="M400.576 65.941l111.424-157.632 111.424 157.632c201.152 50.816 340.544 229.12 340.544 437.824 0 249.216-202.752 451.968-451.968 451.968s-451.968-202.752-451.968-451.968c0-208.704 139.392-387.008 340.544-437.824zM512 891.733c213.952 0 387.968-174.080 387.968-387.968 0-179.84-127.296-338.88-302.72-378.304l-12.032-2.688-73.216-103.616-73.28 103.616-12.032 2.688c-175.424 39.36-302.72 198.464-302.72 378.304 0.064 213.888 174.080 387.968 388.032 387.968zM352 571.733h320c17.664 0 32 14.336 32 32s-14.336 32-32 32h-320c-17.664 0-32-14.336-32-32s14.336-32 32-32zM288 443.733h448c17.664 0 32 14.336 32 32s-14.336 32-32 32h-448c-17.664 0-32-14.336-32-32s14.336-32 32-32zM672 379.733h-320c-17.664 0-32-14.336-32-32s14.336-32 32-32h320c17.664 0 32 14.336 32 32s-14.336 32-32 32z" />
<glyph unicode="&#x68;" glyph-name="bar-counters" d="M992 571.733h-960c-17.664 0-32-14.336-32-32s14.336-32 32-32h960c17.664 0 32 14.336 32 32s-14.336 32-32 32zM32 123.733h832c17.664 0 32 14.336 32 32s-14.336 32-32 32h-832c-17.664 0-32-14.336-32-32s14.336-32 32-32zM32 699.733h768c17.664 0 32 14.336 32 32s-14.336 32-32 32h-768c-17.664 0-32-14.336-32-32s14.336-32 32-32zM32 315.733h576c17.664 0 32 14.336 32 32s-14.336 32-32 32h-576c-17.664 0-32-14.336-32-32s14.336-32 32-32z" />
<glyph unicode="&#x69;" glyph-name="audio" d="M978.688 955.733c-5.888 0-12.16-0.96-18.688-2.944l-640-108.864c-35.328-10.752-64-48.192-64-83.52v-64c0-1.92 0-5.312 0-7.872 0-44.736 0-180.8 0-180.8v-256h-96c-88.384 0-160-71.616-160-160s71.616-160 160-160 160 71.616 160 160v426.688l640 106.688v-245.376h-96c-88.384 0-160-71.616-160-160s71.616-160 160-160 160 71.616 160 160v416c0 0 0 136.192 0 191.616 0 7.040 0 12.992 0 16.96v64c0 28.864-19.072 47.424-45.312 47.424zM256 91.733c0-52.928-43.072-96-96-96s-96 43.072-96 96 43.072 96 96 96h96v-96zM960 219.733c0-52.928-43.072-96-96-96s-96 43.072-96 96 43.072 96 96 96h96v-96zM320 583.253v177.152c0 5.568 7.744 17.216 16.32 21.376l623.68 106.112v-197.952l-640-106.688z" />
<glyph unicode="&#x70;" glyph-name="accordion" d="M64 315.733c0-35.328 28.672-64 64-64h768c35.328 0 64 28.672 64 64v384c0 35.328-28.672 64-64 64h-768c-35.328 0-64-28.672-64-64v-384zM128 699.733h768v-384h-768v384zM928 827.733c17.664 0 32 14.336 32 32s-14.336 32-32 32h-832c-17.664 0-32-14.336-32-32s14.336-32 32-32h832zM96 123.733h832c17.664 0 32 14.336 32 32s-14.336 32-32 32h-832c-17.664 0-32-14.336-32-32s14.336-32 32-32zM96-4.267h832c17.664 0 32 14.336 32 32s-14.336 32-32 32h-832c-17.664 0-32-14.336-32-32s14.336-32 32-32z" />
<glyph unicode="&#x71;" glyph-name="video" d="M960 955.733h-896c-35.328 0-64-28.672-64-64v-896c0-35.328 28.672-64 64-64h896c35.328 0 64 28.672 64 64v896c0 35.328-28.672 64-64 64zM64 891.733h128v-128h-128v128zM64 699.733h128v-128h-128v128zM64 507.733h128v-128h-128v128zM64 315.733h128v-128h-128v128zM64-4.267v128h128v-128h-128zM256-4.267v896h512v-896h-512zM960-4.267h-128v128h128v-128zM960 187.733h-128v128h128v-128zM960 379.733h-128v128h128v-128zM960 571.733h-128v128h128v-128zM832 763.733v128h128v-128h-128zM434.624 629.781c-9.856 6.976-22.592 7.872-33.28 2.368-10.688-5.44-17.344-16.384-17.344-28.416v-320c0-12.032 6.656-22.976 17.344-28.416 4.608-2.432 9.664-3.584 14.656-3.584 6.592 0 13.056 1.984 18.624 5.952l224 160c8.384 6.016 13.376 15.68 13.376 26.048s-4.992 20.032-13.376 26.048l-224 160z" />
<glyph unicode="&#x72;" glyph-name="video-gallery" d="M960 827.733h-64c0 35.328-28.672 64-64 64h-640c-35.328 0-64-28.672-64-64h-64c-35.328 0-64-28.672-64-64v-512c0-35.328 28.672-64 64-64h64c0-35.328 28.672-64 64-64h640c35.328 0 64 28.672 64 64h64c35.328 0 64 28.672 64 64v512c0 35.328-28.672 64-64 64zM64 251.733v512h64v-512h-64zM832 187.733h-640v640h640v-640zM960 251.733h-64v512h64v-512zM544 27.733c0-17.673-14.327-32-32-32s-32 14.327-32 32c0 17.673 14.327 32 32 32s32-14.327 32-32zM672 27.733c0-17.673-14.327-32-32-32s-32 14.327-32 32c0 17.673 14.327 32 32 32s32-14.327 32-32zM416 27.733c0-17.673-14.327-32-32-32s-32 14.327-32 32c0 17.673 14.327 32 32 32s32-14.327 32-32zM499.2 605.333c-9.664 7.296-22.656 8.384-33.536 3.008-10.816-5.44-17.664-16.512-17.664-28.608v-144c0-12.096 6.848-23.168 17.664-28.608 4.544-2.24 9.472-3.392 14.336-3.392 6.784 0 13.568 2.176 19.2 6.4l96 72c8.064 6.016 12.8 15.552 12.8 25.6s-4.736 19.584-12.8 25.6l-96 72zM512 763.733c-141.184 0-256-114.816-256-256s114.816-256 256-256 256 114.816 256 256-114.816 256-256 256zM512 315.733c-105.856 0-192 86.144-192 192s86.144 192 192 192 192-86.144 192-192-86.144-192-192-192z" />
<glyph unicode="&#x73;" glyph-name="columns" d="M800 672h-576c-17.664 0-32-14.336-32-32v-384c0-17.664 14.336-32 32-32h576c17.664 0 32 14.336 32 32v384c0 17.664-14.336 32-32 32zM448 608h128v-320h-128v320zM384 288h-128v320h128v-320zM640 608h128v-320h-128v320z" />
<glyph unicode="&#x74;" glyph-name="code" d="M768 219.733c-9.024 0-17.92 3.776-24.32 11.2-11.52 13.376-9.92 33.6 3.52 45.12l195.584 167.68-195.648 167.744c-13.44 11.52-14.976 31.68-3.52 45.12 11.648 13.44 31.808 14.912 45.12 3.456l224-192c7.232-6.080 11.264-14.976 11.264-24.32s-4.032-18.24-11.2-24.256l-224-192c-6.016-5.184-13.44-7.744-20.8-7.744zM256 219.733c-7.36 0-14.784 2.56-20.8 7.744l-224 192c-7.168 6.016-11.2 14.912-11.2 24.256s4.032 18.24 11.2 24.256l224 192c13.312 11.52 33.536 9.984 45.12-3.456 11.52-13.376 9.92-33.6-3.52-45.056l-195.584-167.744 195.648-167.744c13.44-11.52 14.976-31.68 3.52-45.12-6.464-7.36-15.36-11.136-24.384-11.136zM384 91.733c-3.968 0-8 0.704-11.904 2.304-16.448 6.592-24.384 25.216-17.792 41.6l256 640c6.592 16.384 25.216 24.384 41.536 17.856 16.448-6.592 24.384-25.216 17.792-41.6l-256-640c-4.928-12.544-16.96-20.16-29.632-20.16z" />
<glyph unicode="&#x75;" glyph-name="arrow_carrot-down" d="M729.024 518.4l-185.024-185.024-185.024 185.024c-12.48 12.48-32.768 12.48-45.248 0s-12.48-32.768 0-45.248l207.552-207.552c6.272-6.272 14.528-9.408 22.72-9.344 8.256 0 16.448 3.072 22.72 9.344l207.552 207.552c12.48 12.48 12.48 32.768 0 45.248s-32.768 12.48-45.248 0z" />
<glyph unicode="&#x76;" glyph-name="underline" d="M712 733.76h-48c-13.248 0-24-10.752-24-24v-310.912c0-66.88-48.896-126.528-115.392-132.928-4.288-0.448-8.448-0.64-12.608-0.64-70.72 0-128 57.28-128 128v316.48c0 13.248-10.752 24-24 24h-48c-13.248 0-24-10.752-24-24v-314.048c0-122.624 94.528-229.632 217.088-233.28 2.304-0.128 4.608-0.192 6.912-0.192 123.712 0 224 100.288 224 224v323.52c0 13.248-10.752 24-24 24v0zM256 56.32v15.36c0 13.44 10.88 24.32 24.32 24.32h463.36c13.44 0 24.32-10.88 24.32-24.32v-15.36c0-13.44-10.88-24.32-24.32-24.32h-463.36c-13.44 0-24.32 10.88-24.32 24.32z" />
<glyph unicode="&#x77;" glyph-name="bold" d="M512 640c35.264 0 64-28.736 64-64s-28.736-64-64-64h-96v128h96zM512 736h-168c-13.248 0-24-10.752-24-24v-296h192c88.384 0 160 71.616 160 160s-71.616 160-160 160v0zM536 416c39.68 0 72-32.32 72-72v-16c0-39.68-32.32-72-72-72h-120v160h120zM536 512h-216v-328c0-13.248 10.752-24 24-24h192c92.416 0 168 75.584 168 168v16c0 92.416-75.584 168-168 168v0z" />
<glyph unicode="&#x78;" glyph-name="italic" d="M404.16 671.040l14.656 48c3.136 10.048 12.416 16.96 22.976 16.96h301.824c16.128 0 27.648-15.616 22.976-31.040l-14.656-48c-3.136-10.048-12.416-16.96-22.976-16.96h-301.824c-16.128 0-27.648 15.616-22.976 31.040zM257.408 191.040l14.656 48c3.136 10.048 12.416 16.96 22.976 16.96h301.824c16.128 0 27.648-15.616 22.976-31.040l-14.656-48c-3.136-10.048-12.416-16.96-22.976-16.96h-301.824c-16.128 0-27.648 15.616-22.976 31.040zM460.608 160h-52.224c-16.128 0-27.648 15.616-22.976 31.040l161.408 528c3.136 10.048 12.416 16.96 22.976 16.96h52.224c16.128 0 27.648-15.616 22.976-31.040l-161.472-528c-3.072-10.048-12.416-16.96-22.912-16.96z" />
<glyph unicode="&#x79;" glyph-name="uppercase" d="M128 664.32v47.36c0 13.44 10.88 24.32 24.32 24.32h303.36c13.44 0 24.32-10.88 24.32-24.32v-47.36c0-13.44-10.88-24.32-24.32-24.32h-303.36c-13.44 0-24.32 10.88-24.32 24.32zM327.68 160h-47.36c-13.44 0-24.32 10.88-24.32 24.32v527.36c0 13.44 10.88 24.32 24.32 24.32h47.36c13.44 0 24.32-10.88 24.32-24.32v-527.36c0-13.44-10.88-24.32-24.32-24.32zM544 661.632v52.736c0 11.968 9.664 21.632 21.632 21.632h308.736c11.968 0 21.632-9.664 21.632-21.632v-52.736c0-11.968-9.664-21.632-21.632-21.632h-308.736c-11.968 0-21.632 9.664-21.632 21.632zM743.68 160h-47.36c-13.44 0-24.32 10.88-24.32 24.32v527.36c0 13.44 10.88 24.32 24.32 24.32h47.36c13.44 0 24.32-10.88 24.32-24.32v-527.36c0-13.44-10.88-24.32-24.32-24.32z" />
</font>
</defs>
</svg>
